Hampstead 2017 720p BRRip x264 AAC MSubS - Hon3y

  • Category Movies
  • Type HD
  • Language English
  • Total size 1,023.2 MB
  • Uploaded By Hon3yHD
  • Downloads 32
  • Last checked 4 days ago
  • Date uploaded 1 week ago
  • Seeders 4
  • Leechers 0

Hampstead

RomanceComedy

Emily Walters is an American widow living a peaceful, uneventful existence in the idyllic Hampstead Village of London, when she meets a local recluse, Donald Horner. For 17 years, Donald has lived—wildly yet peacefully—in a ramshackle hut near the edge of the forest. When Emily learns his home is the target of developers who will stop at nothing to remove him, saving Donald and his property becomes her personal mission. Despite his gruff exterior and polite refusals for help, Emily is drawn to him—as he is to her—and what begins as a charitable cause evolves into a relationship that will grow even as the bulldozers close in.

Infohash : 5355F361762ED75A95679C31B901CB94A5A4E8C0




Hampstead 2017 720p BRRip x264 AAC MSubS - Hon3y

Source: BLOW
Format : Matroska
Format version : Version 4 / Version 2
File size : 1 023 MiB
Duration : 1 h 42 min
Overall bit rate : 1 394 kb/s
Movie name : Hampstead 2017 - Hon3y


Video
ID : 1
Format : AVC
Format/Info : Advanced Video Codec
Format profile : [email protected]
Format settings, CABAC : Yes
Format settings, RefFrames : 8 frames
Codec ID : V_MPEG4/ISO/AVC
Duration : 1 h 42 min
Bit rate : 1 200 kb/s
Width : 1 280 pixels
Height : 536 pixels
Display aspect ratio : 2.40:1
Frame rate mode : Constant
Frame rate : 24.000 FPS
Default : Yes
Forced : No
Color range : Limited
Color primaries : BT.709
Transfer characteristics : BT.709
Matrix coefficients : BT.709

Audio
ID : 2
Format : AAC
Format/Info : Advanced Audio Codec
Format profile : LC
Codec ID : A_AAC
Duration : 1 h 42 min
Bit rate : 192 kb/s
Channel(s) : 6 channels
Channel positions : Front: L C R, Side: L R, LFE
Sampling rate : 48.0 kHz
Frame rate : 46.875 FPS (1024 SPF)
Compression mode : Lossy
Delay relative to video : -21 ms
Stream size : 140 MiB (14%)
Title : Surround
Language : English
Default : Yes
Forced : No

Text #1
ID : 3
Format : UTF-8
Codec ID : S_TEXT/UTF8
Codec ID/Info : UTF-8 Plain Text
Duration : 1 h 37 min
Bit rate : 68 b/s
Count of elements : 1457
Stream size : 49.1 KiB (0%)
Language : English
Default : Yes
Forced : No

Text #2
ID : 4
Format : UTF-8
Codec ID : S_TEXT/UTF8
Codec ID/Info : UTF-8 Plain Text
Duration : 1 h 41 min
Bit rate : 54 b/s
Count of elements : 910
Stream size : 40.6 KiB (0%)
Language : Swedish
Default : No
Forced : No

Text #3
ID : 5
Format : UTF-8
Codec ID : S_TEXT/UTF8
Codec ID/Info : UTF-8 Plain Text
Duration : 1 h 40 min
Bit rate : 47 b/s
Count of elements : 908
Stream size : 34.7 KiB (0%)
Language : Norwegian
Default : No
Forced : No

Text #4
ID : 6
Format : UTF-8
Codec ID : S_TEXT/UTF8
Codec ID/Info : UTF-8 Plain Text
Duration : 1 h 40 min
Bit rate : 40 b/s
Count of elements : 908
Stream size : 29.6 KiB (0%)
Language : Finnish
Default : No
Forced : No

Text #5
ID : 7
Format : UTF-8
Codec ID : S_TEXT/UTF8
Codec ID/Info : UTF-8 Plain Text
Duration : 1 h 41 min
Bit rate : 50 b/s
Count of elements : 909
Stream size : 37.1 KiB (0%)
Language : Danish
Default : No
Forced : No

Menu
00:00:00.000 : :00:00:00.000
00:11:07.417 : :00:11:07.417
00:22:46.000 : :00:22:46.000
00:37:14.042 : :00:37:14.042
00:49:47.250 : :00:49:47.250
01:00:58.542 : :01:00:58.542
01:12:52.708 : :01:12:52.708
01:26:15.125 : :01:26:15.125


Files:

Hampstead 2017 720p BRRip x264 AAC MSubS - Hon3y
  • Hampstead 2017 720p BRRip x264 AAC MSubS - Hon3y.mkv (1,023.2 MB)
  • Torrent Seed By www.cyber-planet.in.txt (0.1 KB)
  • www.hon3yhd.to.txt (0.2 KB)

There are currently no comments. Feel free to leave one :)

Code:

  • udp://tracker.coppersurfer.tk:6969/announce
  • udp://tracker.pirateparty.gr:6969/announce
  • udp://shadowshq.yi.org:6969/announce
  • udp://eddie4.nl:6969/announce
  • udp://tracker.leechers-paradise.org:6969/announce
  • udp://tracker.opentrackr.org:1337/announce
  • udp://p4p.arenabg.ch:1337/announce
  • udp://p4p.arenabg.com:1337/announce
  • udp://9.rarbg.me:2710/announce
  • udp://9.rarbg.to:2710/announce
  • udp://tracker.coppersurfer.tk:80/announce
  • udp://tracker.vanitycore.co:6969/announce
  • udp://public.popcorn-tracker.org:6969/announce
  • udp://tracker.opentrackr.org:1337/announce
  • udp://tracker.zer0day.to:1337/announce